أحدث الأفلام والمسلسلات الأجنبية مترجمة وبأحجام خيالية
 
الرئيسيةالبوابةس .و .جبحـثالأعضاءالمجموعاتالتسجيلدخول

شاطر | 
 

 Wall E - TS.XviD-PreVail.AVI.avi

استعرض الموضوع السابق استعرض الموضوع التالي اذهب الى الأسفل 
كاتب الموضوعرسالة
Fanar
مشرف عام
مشرف عام
avatar

عدد الرسائل : 177
تاريخ التسجيل : 13/04/2008

مُساهمةموضوع: Wall E - TS.XviD-PreVail.AVI.avi   الجمعة يوليو 11, 2008 5:41 am

Wall E - TS.XviD-PreVail.AVI.avi



General
Complete name : Wall E - TS.XviD-PreVail.AVI.avi
Format : AVI
Format/Info : Audio Video Interleave
File size : 698 MiB
Duration : 1h 28mn
Overal bit rate : 1101 Kbps
Writing application : Nandub v1.0rc2
Writing library : Nandub build 1852/release

Video
Format : MPEG-4 Visual
Format profile : Streaming Video@L1
Format settings, BVOP : Yes
Format settings, QPel : No
Format settings, GMC : No warppoints
Format settings, Matrix : Default
Muxing mode : Packet Bitstream
Codec ID : XVID
Codec ID/Hint : XviD
Duration : 1h 28mn
Bit rate : 968 Kbps
Width : 640 pixels
Height : 272 pixels
Display aspect ratio : 2.35
Frame rate : 25.000 fps
Resolution : 8 bits
Colorimetry : 4:2:0
Scan type : Progressive
Bits/(Pixel*Frame) : 0.222
Stream size : 613 MiB
Writing library : XviD 1.1.2 (UTC 2006-11-01)

Audio
Format : MPEG Audio
Format version : Version 1
Format profile : Layer 3
Codec ID : 55
Codec ID/Hint : MP3
Duration : 1h 28mn
Bit rate mode : Variable
Bit rate : 121 Kbps
Nominal bit rate : 128 Kbps
Channel(s) : 2 channels
Sampling rate : 44.1 KHz
Resolution : 16 bits
Stream size : 76.6 MiB
Writing library : LAME3.90.
Encoding settings : ABR






عدل سابقا من قبل Fanar في الخميس يوليو 24, 2008 10:55 pm عدل 1 مرات
الرجوع الى أعلى الصفحة اذهب الى الأسفل
معاينة صفحة البيانات الشخصي للعضو
sss1213
عضو جديد
عضو جديد


عدد الرسائل : 14
تاريخ التسجيل : 05/07/2008

مُساهمةموضوع: رد: Wall E - TS.XviD-PreVail.AVI.avi   الثلاثاء يوليو 15, 2008 3:35 pm

مشكووووووووووووووور
الرجوع الى أعلى الصفحة اذهب الى الأسفل
معاينة صفحة البيانات الشخصي للعضو
free6610
عضو جديد
عضو جديد


عدد الرسائل : 5
تاريخ التسجيل : 05/07/2008

مُساهمةموضوع: رد: Wall E - TS.XviD-PreVail.AVI.avi   الأربعاء يوليو 23, 2008 12:08 am

thnnnnnnnnnnnnnnnnnnnnk
الرجوع الى أعلى الصفحة اذهب الى الأسفل
معاينة صفحة البيانات الشخصي للعضو
mohamed eletr
عضو جديد
عضو جديد


عدد الرسائل : 4
تاريخ التسجيل : 05/08/2008

مُساهمةموضوع: رد: Wall E - TS.XviD-PreVail.AVI.avi   الثلاثاء أغسطس 05, 2008 12:57 pm

thaaanx
الرجوع الى أعلى الصفحة اذهب الى الأسفل
معاينة صفحة البيانات الشخصي للعضو
 
Wall E - TS.XviD-PreVail.AVI.avi
استعرض الموضوع السابق استعرض الموضوع التالي الرجوع الى أعلى الصفحة 
صفحة 1 من اصل 1
 مواضيع مماثلة
-
» Exclusive WWE.Hell.in.a.Cell 2010 XVID 1.33GB Rmvb 480MB
» WWE Smackdown 2010.03.26 XviD AVI 717 MB , RMVB 270 MB
» WWE.Raw.Draft.24.06.08 xvid 1.1 GB Rmvb 400 MB
» ترجمة فيلم Bangkok Dangerous R5 LINE XviD-COALiTiON

صلاحيات هذا المنتدى:لاتستطيع الرد على المواضيع في هذا المنتدى
منتديات الـكـيــــف الـسينـمـائـيــة :: المنتديات السينمائية :: تحميل الأفلام والمسلسلات :: تحميل الأفلام الأجنبية بالتورنت-
انتقل الى: